找回密码
 立即注册

纸牌21点:[自然科学] [BBC/2018][拯救红毛猩猩*强烈推荐][MKV][720P][1.44GB][英语][百度云盘]

棋牌21点 www.hz79.com.cn 2 点赞 作者: jannylee01 |2018-6-21 11:16| 只看作者 | 查看/评论: 1046/25| 有效评论: 19

婆罗洲的猩猩在基因上是人类的近亲,现在生存环境面临危险。国际动物拯救组织救助绝境中的猩猩,提供紧急医疗,然后将病愈的猩猩放归自然。


BBC:https://www.bbc.co.uk/programmes/b0b2n9v0

Information
For the last decade, a team of frontline medics has been fighting to save Borneo's critically endangered orangutans. Armed with cameras, International Animal Rescue has documented their struggle: pulling apes from devastated jungle, giving emergency medical care, rehabilitating and releasing the healthiest orangutans back into the wild. This is both the story of their life-saving work and of how one of our closest wild relatives has been pushed to the brink of extinction.

Combining genuine rescue footage with contributions from experts throughout, this documentary looks toward the future and asks what hope remains to save the orangutan.




































General
Unique ID                      : 10529920200320750497910080655195240933 (0x7EBFD26191BD17AACDBBEC16BC1F9E5)
Format                         : Matroska
Format version                 : Version 4 / Version 2
File size                      : 1.44 GiB
Duration                       : 58 min 49 s
Overall bit rate               : 3 498 kb/s
Movie name                     : Red Ape: Saving the Orangutan [MVGroup]
Encoded date                   : UTC 2018-05-11 18:42:20
Writing application            : mkvmerge v23.0.0 ('The Bride Said No') 64-bit
Writing library                : libebml v1.3.6 + libmatroska v1.4.9

Video
ID                             : 1
Format                         : AVC
Format/Info                    : Advanced Video Codec
Format profile                 : [email protected]
Format settings, CABAC         : Yes
Format settings, ReFrames      : 4 frames
Codec ID                       : V_MPEG4/ISO/AVC
Duration                       : 58 min 49 s
Bit rate                       : 3 356 kb/s
Width                          : 1 280 pixels
Height                         : 720 pixels
Display aspect ratio           : 16:9
Frame rate mode                : Constant
Frame rate                     : 25.000 FPS
Color space                    : YUV
Chroma subsampling             : 4:2:0
Bit depth                      : 8 bits
Scan type                      : Progressive
Bits/(Pixel*Frame)             : 0.146
Stream size                    : 1.38 GiB (96%)
Writing library                : x264 core 155 r2901 MVGroup
Encoding settings              : cabac=1 / ref=4 / deblock=1:0:0 / analyse=0x3:0x113 / me=umh / subme=9 / psy=1 / psy_rd=1.00:0.00 / mixed_ref=1 / me_range=24 / chroma_me=1 / trellis=1 / 8x8dct=1 / cqm=0 / deadzone=21,11 / fast_pskip=0 / chroma_qp_offset=-2 / threads=3 / lookahead_threads=1 / sliced_threads=0 / nr=0 / decimate=1 / interlaced=0 / bluray_compat=0 / constrained_intra=0 / bframes=6 / b_pyramid=2 / b_adapt=2 / b_bias=0 / direct=1 / weightb=1 / open_gop=0 / weightp=2 / keyint=250 / keyint_min=25 / scenecut=40 / intra_refresh=0 / rc_lookahead=40 / rc=crf / mbtree=1 / crf=20.0 / qcomp=0.60 / qpmin=0 / qpmax=69 / qpstep=4 / ip_ratio=1.40 / aq=1:1.00
Language                       : English
Default                        : Yes
Forced                         : No
Color range                    : Limited
Color primaries                : BT.709
Transfer characteristics       : BT.709
Matrix coefficients            : BT.709

Audio
ID                             : 2
Format                         : AAC
Format/Info                    : Advanced Audio Codec
Format profile                 : LC
Codec ID                       : A_AAC
Duration                       : 58 min 49 s
Bit rate                       : 139 kb/s
Channel(s)                     : 2 channels
Channel positions              : Front: L R
Sampling rate                  : 48.0 kHz
Frame rate                     : 46.875 FPS (1024 spf)
Compression mode               : Lossy
Delay relative to video        : 9 ms
Stream size                    : 58.7 MiB (4%)
Language                       : English
Default                        : Yes
Forced                         : No

Text
ID                             : 3
Format                         : UTF-8
Codec ID                       : S_TEXT/UTF8
Codec ID/Info                  : UTF-8 Plain Text
Duration                       : 58 min 8 s
Bit rate                       : 62 b/s
Count of elements              : 636
Stream size                    : 26.5 KiB (0%)
Language                       : English
Default                        : No
Forced                         : No

下载地址:
链接:链接: https://pan.baidu.com/s/1jFElOZ07GHb4X64VCuvMOQ

献花下载
您需向作者送上 2朵鲜花 才能下载(已有19人献花)  【该资料使用百度网盘分享】
压缩文件解压密码(红色内容):棋牌21点 www.hz79.com.cn
特别声明:本文由猜友jannylee01整理(或原创),转载请务必注明出自两小无猜网,否则一律禁止转载!
分享到:
免花下载:扫描二维码关注猜网官方公众号【无猜英语小报 lxwc-kids
1、回复 “139”免费领取《粉红猪小妹英文版全集 Peppa Pig 全4季211集
2、回复 “480”免费领取《爱探险的朵拉全八季高清版
3、回复 “1101”免费领取《Little fox系列 160首英文儿歌 高清动画
4、回复 “759”免费领取《汪汪队立大功 PAW Patrol 全4季高清104集
5、回复 “578”免费领取《小鼠波波 Maisy Mouse 全106集动画+音频
6、回复 “222”免费领取《跳跳蛙 Leap Frog 全13集MKV
7、回复 “501”免费领取《米奇妙妙屋 英文版全5季+剧场版
8、回复 “590”免费领取《字母积木 Alphablocks 全4季高清720P版
9、回复 “1356”免费领取《Raz-kids 1000多本绘本+音频

最新评论

0 点赞 xianxian 发表于 2018-6-21 11:22:57
谢谢分享好资源
0 点赞 xianxian2008 发表于 2018-6-21 11:38:03
谢谢分享好资源
0 点赞 Nathan爸 发表于 2018-6-21 11:48:50
多谢分享下载收藏了
0 点赞 青梅竹马哈哈哈 发表于 2018-6-21 11:49:55
Thanks for sharing.
0 点赞 静斋 发表于 2018-6-21 11:57:11
谢谢分享好资源
0 点赞 胡良平 发表于 2018-6-21 12:01:01
谢谢分享好资源
0 点赞 60度 发表于 2018-6-21 12:19:56
好资源,谢谢
0 点赞 freemanhong 发表于 2018-6-21 12:35:08
0 点赞  fres110 发表于 1 小时前


谢谢资源分享!
0 点赞 巴士贤太太 发表于 2018-6-21 12:56:44
谢谢分享好资源
12下一页
今天要读的是2018年新出版的温情绘本《 Love,Mama》,这个故事充分表现了孩子对妈妈的依赖和眷恋,家长和孩子在听完这个故事之后,相信也会带入其中,感受到父母和孩子互相牵绊的温情。
快速回复 棋牌21点 返回列表